osu file format v14

[General]
AudioFilename: yuruyuried.mp3
AudioLeadIn: 1500
PreviewTime: 56318
Countdown: 0
SampleSet: Soft
StackLeniency: 0.7
Mode: 0
LetterboxInBreaks: 0
WidescreenStoryboard: 0

[Editor]
Bookmarks: 4055,8950,17318,20950,23476,29792,30897,38634,42424,43687,48108,50003,51897,53792,56318,61055,71476,85371
DistanceSpacing: 1
BeatDivisor: 4
GridSize: 4
TimelineZoom: 2.199999

[Metadata]
Title:My Pace de Ikimashou
TitleUnicode:マイペースでいきましょう
Artist:Nanamori-chu * Goraku-bu
ArtistUnicode:七森中☆ごらく部
Creator:Lasse
Version:Hard
Source:ゆるゆり
Tags:Yuru Yuri Akaza Akari Toshinou Kyouko Funami Yui Yoshikawa Chinatsu Mikami Shiori Ootsubo Yuka Tsuda Minami Ookubo Rumi
BeatmapID:743553
BeatmapSetID:335145

[Difficulty]
HPDrainRate:5
CircleSize:4
OverallDifficulty:7
ApproachRate:8
SliderMultiplier:1.6
SliderTickRate:1

[Events]
//Background and Video events
0,0,"bg.jpg",0,0
//Break Periods
//Storyboard Layer 0 (Background)
//Storyboard Layer 1 (Fail)
//Storyboard Layer 2 (Pass)
//Storyboard Layer 3 (Foreground)
//Storyboard Sound Samples

[TimingPoints]
740,315.789473684211,4,2,1,50,1,0
1529,-100,4,2,1,50,0,0
2634,-100,4,2,1,60,0,0
5161,-100,4,2,1,70,0,0
7687,-100,4,2,1,75,0,0
8950,-100,4,2,1,80,0,0
9582,-100,4,2,1,85,0,0
10845,-100,4,2,1,90,0,0
12266,-100,4,2,1,75,0,0
13371,-100,4,2,1,80,0,0
48740,-100,4,2,1,100,0,0
48897,-100,4,2,1,80,0,0
53792,-100,4,2,1,82,0,0
57582,-100,4,2,1,85,0,0
58529,-100,4,2,1,88,0,0
59161,-100,4,2,1,91,0,0
60108,-100,4,2,1,94,0,0
60582,-100,4,2,1,97,0,0
60740,-100,4,3,1,97,0,0
61371,-100,4,2,1,100,0,1
80950,-100,4,2,1,100,0,0
81582,-100,4,2,1,90,0,0
82845,-100,4,2,1,85,0,0
87740,-100,4,2,2,80,0,0

[Colours]
Combo1 : 87,171,255
Combo2 : 255,128,192
Combo3 : 169,255,83
Combo4 : 245,218,90

[HitObjects]
309,22,1529,6,0,B|337:28|358:48|367:73,1,80,,,0:0:0:0:
292,103,1845,2,0,B|303:130|325:148|351:154,1,80,,,0:0:0:0:
429,153,2161,2,0,B|432:184|416:211|391:225,2,80,,,0:0:0:0:
349,154,2634,5,10,3:2:0:0:
349,154,2792,1,10,3:2:0:0:
287,305,3108,2,0,B|258:299|237:278|227:253,2,80,10|10|10,3:2|3:2|3:2,0:0:0:0:
438,250,3740,1,10,3:3:0:0:
307,151,4055,6,0,B|291:128|264:118|238:123,1,80,,,0:0:0:0:
249,203,4371,2,0,B|221:209|193:198|176:177,1,80,,,0:0:0:0:
158,99,4687,2,0,B|122:111|98:141|92:175,2,80,,,0:0:0:0:
176,178,5161,5,10,3:2:0:0:
176,178,5318,1,10,3:2:0:0:
303,274,5634,2,0,B|319:302|319:302|315:326|315:326|327:354,2,80,10|10|10,3:2|3:2|3:2,0:0:0:0:
256,120,6266,1,10,3:3:0:0:
416,124,6582,6,0,B|449:123|476:144|488:171,1,80,,,0:0:0:0:
416,204,6897,1,0,0:0:0:0:
488,236,7055,2,0,B|476:266|447:284|417:284,1,80,,,0:0:0:0:
376,348,7371,2,0,B|349:331|338:299|343:271,1,80,,,0:0:0:0:
359,201,7687,5,10,3:2:0:0:
359,201,7845,1,10,0:0:0:0:
390,127,8003,2,0,B|357:107|316:118|295:147,1,80,,,0:0:0:0:
257,187,8318,1,0,0:0:0:0:
257,187,8476,1,2,0:0:0:0:
204,248,8634,2,0,B|182:284|136:295|101:276,1,80,,,0:0:0:0:
136,204,8950,5,10,3:2:0:0:
136,204,9108,1,10,3:2:0:0:
60,171,9266,2,0,B|78:136|115:119|151:123,1,80,,,0:0:0:0:
200,106,9582,1,10,3:2:0:0:
200,106,9740,1,10,3:2:0:0:
285,97,9897,2,0,B|291:130|276:161|250:177,1,80,,,0:0:0:0:
196,218,10213,5,10,3:2:0:0:
196,218,10371,1,10,3:2:0:0:
412,321,10845,1,10,3:2:0:0:
444,164,11161,1,10,3:2:0:0:
308,248,11476,5,10,3:1:0:0:
251,304,11634,1,10,3:2:0:0:
194,247,11792,1,10,3:2:0:0:
250,190,11950,1,10,3:3:0:0:
92,160,12266,6,0,B|85:123|98:87|124:64,1,80,2|0,0:1|0:0,0:0:0:0:
171,130,12582,2,0,B|191:98|226:83|261:85,1,80,2|0,0:0|0:0,0:0:0:0:
247,168,12897,2,0,B|284:161|319:175|342:200,1,80,2|0,0:1|0:0,0:0:0:0:
252,328,13371,6,0,B|280:334|306:328|328:315,1,80,10|2,0:0|0:0,0:0:0:0:
392,264,13687,1,10,0:0:0:0:
476,128,14003,1,2,0:0:0:0:
400,108,14161,1,0,0:0:0:0:
328,140,14318,1,10,0:0:0:0:
224,264,14634,6,0,B|196:270|169:265|147:251,1,80,10|2,0:0|0:0,0:0:0:0:
128,172,14950,1,8,0:0:0:0:
244,60,15266,1,2,0:0:0:0:
316,28,15424,1,0,0:0:0:0:
380,80,15582,1,10,0:0:0:0:
462,216,15897,6,0,B|470:274|435:327|383:346,1,160,14|10,3:3|3:2,3:2:0:0:
253,255,16529,2,0,B|245:199|277:147|326:127,1,160,14|10,3:3|3:2,3:2:0:0:
348,286,17161,6,0,B|341:317|319:340|292:350,1,80,2|0,3:2|3:0,3:0:0:0:
220,345,17476,1,10,3:2:0:0:
95,243,17792,2,0,B|76:181|143:123|203:155,1,160,2|10,3:1|3:2,0:0:0:0:
344,184,18424,6,0,B|322:205|291:210|264:200,1,80,6|0,0:0|0:0,0:0:0:0:
288,124,18740,1,10,0:0:0:0:
448,148,19056,1,2,0:0:0:0:
420,224,19214,1,0,0:0:0:0:
368,284,19371,1,10,0:0:0:0:
216,332,19687,6,0,B|185:342|153:330|136:305,1,80,2|0,0:0|0:0,0:0:0:0:
80,264,20003,1,10,0:0:0:0:
12,104,20319,1,2,0:0:0:0:
80,64,20477,1,0,0:0:0:0:
160,48,20635,1,10,0:0:0:0:
317,74,20950,6,0,B|368:104|388:165|368:217,1,160,14|10,3:3|3:2,3:2:0:0:
245,313,21582,2,0,B|196:284|176:226|191:175,1,160,14|10,3:3|3:2,3:2:0:0:
376,328,22371,5,2,3:1:0:0:
336,256,22529,1,10,3:2:0:0:
240,128,22845,2,0,L|212:96,2,40,2|0|0,3:3|3:3|3:3,0:0:0:0:
316,156,23161,2,0,L|376:172,2,40,10|0|0,3:3|3:3|3:3,0:0:0:0:
376,96,23476,6,0,B|432:112|444:172|428:224|368:240,1,160,6|10,0:0|0:0,0:0:0:0:
324,264,23950,1,0,0:0:0:0:
384,316,24108,2,0,B|348:364|280:348|240:320|252:260,1,160,2|10,0:0|0:0,0:0:0:0:
228,212,24582,1,0,0:0:0:0:
172,264,24740,6,0,B|130:223|148:161|186:126|249:131,1,160,2|10,0:0|0:0,0:0:0:0:
278,98,25213,1,0,0:0:0:0:
352,60,25371,2,0,B|384:44|421:52|444:75,1,80,2|0,0:0|0:0,0:0:0:0:
388,132,25687,2,0,B|378:159|393:188|420:196,1,80,10|0,0:0|0:0,0:0:0:0:
500,212,26003,5,2,0:0:0:0:
476,288,26161,1,0,0:0:0:0:
404,320,26318,2,0,B|375:343|334:340|309:317,1,80,10|0,0:0|0:0,0:0:0:0:
356,252,26634,2,0,B|341:198|276:184,1,80,2|0,0:0|0:0,0:0:0:0:
272,268,26950,2,0,B|268:301|245:327|216:336,1,80,10|0,0:0|0:0,0:0:0:0:
192,259,27266,5,6,3:2:0:0:
142,196,27424,1,0,3:2:0:0:
129,116,27582,1,10,3:2:0:0:
160,42,27739,1,0,3:2:0:0:
233,9,27897,1,2,3:3:0:0:
388,40,28213,6,0,B|417:37|438:69|420:101|392:106|374:93,1,80,2|2,2:2|0:0,0:0:0:0:
324,88,28529,6,0,B|317:133|347:175|394:186|430:170,1,160,6|10,0:0|0:0,0:1:0:0:
500,132,29003,1,0,0:0:0:0:
496,212,29161,1,2,0:0:0:0:
468,286,29318,1,0,0:0:0:0:
395,320,29476,2,0,B|357:335|316:319|297:286,1,80,10|0,0:0|0:0,0:1:0:0:
261,254,29792,5,2,0:0:0:0:
219,185,29950,1,0,0:0:0:0:
190,110,30108,2,0,L|159:28,1,80,8|0,0:0|0:0,0:0:0:0:
83,14,30424,1,2,0:0:0:0:
38,80,30582,2,0,L|67:156,1,80,0|10,0:0|0:0,0:0:0:0:
143,176,30897,1,0,0:0:0:0:
190,110,31055,5,2,0:0:0:0:
350,110,31371,1,10,0:0:0:0:
271,249,31687,2,0,B|271:177|271:177|267:173|267:173|275:173|275:173|271:169|271:169|271:100,1,160,2|10,0:0|0:0,0:0:0:0:
311,30,32161,2,0,B|280:18|247:21|220:35,1,80,0|10,3:3|3:2,0:0:0:0:
162,68,32476,5,0,3:2:0:0:
114,132,32635,1,10,3:2:0:0:
83,206,32793,1,0,3:2:0:0:
86,285,32950,2,0,B|81:319|101:350|130:362,1,80,10|0,3:2|0:0,0:0:0:0:
166,290,33266,6,0,B|197:268|197:268|201:269|201:269|197:262|197:262|203:263|203:263|235:242,1,80,10|0,0:0|2:2,0:0:0:0:
284,198,33582,5,10,0:0:0:0:
402,91,33897,1,10,2:2:0:0:
251,36,34213,1,2,2:2:0:0:
181,75,34371,1,0,2:2:0:0:
129,135,34528,1,10,2:2:0:0:
108,296,34845,6,0,B|119:326|150:341|179:336,1,80,2|0,2:2|2:2,0:0:0:0:
172,256,35160,1,10,2:2:0:0:
256,120,35476,1,2,2:2:0:0:
316,68,35634,1,0,0:0:0:0:
396,76,35792,1,10,2:2:0:0:
436,232,36108,6,0,B|456:212|464:185|460:159,2,80,14|0|10,3:2|2:2|3:2,3:2:0:0:
280,192,36740,2,0,B|259:211|252:239|259:264,2,80,10|0|10,3:2|2:2|3:2,3:2:0:0:
196,56,37371,5,2,3:2:0:0:
148,120,37529,1,8,3:2:0:0:
316,328,38003,1,2,3:2:0:0:
364,264,38161,1,8,3:2:0:0:
252,192,38634,6,0,B|236:230|191:245|156:224,1,80,6|0,0:0|0:0,0:0:0:0:
108,228,38950,1,10,0:0:0:0:
44,176,39108,1,0,0:0:0:0:
56,96,39266,2,0,B|73:64|107:48|139:52,1,80,2|0,0:0|0:0,0:0:0:0:
200,56,39582,1,0,0:0:0:0:
276,84,39740,1,0,0:0:0:0:
340,20,39897,6,0,B|372:52|378:99|358:139|325:159,1,160,2|10,0:0|0:0,0:0:0:0:
257,200,40371,1,0,0:0:0:0:
176,199,40529,2,0,B|139:190|115:156|115:121,1,80,2|0,0:0|0:0,0:0:0:0:
196,121,40845,2,0,B|221:100|254:94|283:102,1,80,10|0,0:0|0:0,0:0:0:0:
358,111,41161,5,2,0:0:0:0:
423,170,41318,1,0,0:0:0:0:
462,248,41476,2,0,B|463:288|435:320|399:328,1,80,10|0,0:0|0:0,0:0:0:0:
374,244,41792,2,0,B|329:205|335:147,2,80,2|0|10,0:0|0:0|0:0,0:0:0:0:
423,170,42266,2,0,B|441:151|444:124|431:101|412:90,1,80,0|10,0:0|2:2,0:0:0:0:
336,76,42582,5,0,3:2:0:0:
256,76,42740,1,10,3:2:0:0:
176,88,42898,1,0,3:2:0:0:
112,136,43055,1,10,3:0:0:0:
82,293,43371,6,0,B|111:282|141:281|168:289,1,80,10|0,0:0|0:0,0:1:0:0:
240,303,43687,2,0,B|285:321|336:299|355:251|344:210,1,160,6|10,0:0|0:0,0:0:0:0:
266,227,44161,1,0,0:0:0:0:
186,231,44318,2,0,B|180:187|210:146|254:136|290:150,1,160,6|10,0:0|0:0,0:0:0:0:
367,180,44792,1,2,0:0:0:0:
420,239,44950,6,0,B|446:221|456:187|446:157|425:139,1,80,2|0,0:0|0:0,0:0:0:0:
393,105,45266,1,10,0:0:0:0:
316,80,45424,1,0,0:0:0:0:
232,80,45582,2,0,B|204:76|179:97|176:125,1,80,2|0,0:0|0:0,0:0:0:0:
252,156,45898,2,0,B|242:183|257:212|284:220,1,80,10|0,0:0|0:0,0:0:0:0:
336,156,46213,5,2,0:0:0:0:
396,212,46371,1,0,0:0:0:0:
444,276,46529,2,0,B|411:293|374:291|343:276,1,80,10|0,0:0|0:0,0:0:0:0:
297,326,46845,2,0,B|282:299|281:268|293:242,1,80,2|0,0:0|0:0,0:0:0:0:
300,168,47161,2,0,B|298:138|272:116|241:118|221:135,1,80,10|0,0:0|0:0,0:0:0:0:
164,140,47476,5,6,3:2:0:0:
88,166,47634,1,0,3:0:0:0:
114,241,47792,1,10,3:2:0:0:
188,216,47950,1,0,3:2:0:0:
240,276,48108,6,0,L|264:308,2,40,2|0|0,3:0|3:0|3:0,0:0:0:0:
272,200,48424,2,0,L|316:184,2,40,10|0|0,3:1|3:1|3:1,0:0:0:0:
248,79,48740,6,0,B|275:73|302:78|324:91,1,80,6|0,2:3|0:0,0:0:0:0:
362,20,49055,2,0,B|386:35|401:58|407:82,1,80,10|0,2:1|0:0,0:0:0:0:
479,120,49371,2,0,B|463:143|440:159|416:165,1,80,2|0,0:0|0:0,0:0:0:0:
336,152,49687,1,10,0:0:0:0:
327,232,49845,1,0,0:0:0:0:
411,242,50003,6,0,B|402:282|374:313|339:327,1,80,2|0,0:0|0:0,0:0:0:0:
298,346,50318,1,10,0:0:0:0:
225,311,50476,1,0,0:0:0:0:
145,297,50634,2,0,B|113:299|85:278|77:250,1,80,2|0,0:0|0:0,0:0:0:0:
149,221,50950,1,10,0:0:0:0:
215,176,51108,1,0,0:0:0:0:
284,136,51266,6,0,B|306:104|351:98|380:124,1,80,4|0,0:0|0:0,0:0:0:0:
344,192,51582,2,0,B|372:193|395:211|405:236,1,80,10|0,0:0|0:0,0:0:0:0:
332,272,51897,2,0,B|350:293|353:322|343:346,1,80,2|0,0:0|0:0,0:0:0:0:
268,316,52213,2,0,B|235:349|184:353|144:327|129:289,2,160,10|4|10,0:0|0:0|0:0,0:0:0:0:
332,168,53161,1,2,0:0:0:0:
204,264,53476,1,10,0:0:0:0:
252,100,53792,6,0,B|282:77|318:70|352:76,1,80,6|0,0:0|0:0,0:0:0:0:
408,72,54108,1,10,0:0:0:0:
456,224,54424,1,2,0:0:0:0:
316,300,54740,1,10,0:0:0:0:
236,288,54897,1,2,0:0:0:0:
160,268,55055,6,0,B|133:251|119:222|120:192,1,80,2|0,0:0|0:0,0:0:0:0:
200,196,55371,2,0,B|227:179|241:150|240:120,1,80,2|0,0:0|0:0,0:0:0:0:
160,124,55687,2,0,B|133:107|119:78|120:48,1,80,2|0,0:0|0:0,0:0:0:0:
200,60,56003,2,0,B|233:45|270:51|296:72,1,80,10|0,0:0|0:0,0:0:0:0:
344,104,56318,5,10,3:2:0:0:
133,346,56950,1,10,3:2:0:0:
444,264,57582,1,10,3:2:0:0:
184,76,58213,1,10,3:2:0:0:
284,204,58529,1,2,3:2:0:0:
224,256,58687,1,0,3:2:0:0:
164,308,58845,5,10,3:1:0:0:
27,171,59161,1,10,3:1:0:0:
162,36,59476,1,10,3:1:0:0:
298,172,59792,1,10,3:1:0:0:
164,228,60108,5,4,3:3:0:0:
107,171,60266,1,0,3:3:0:0:
163,114,60424,1,8,3:3:0:0:
219,170,60582,1,0,3:3:0:0:
164,228,60740,6,0,L|164:292,6,40,4|0|0|0|0|0|0,3:3|0:0|0:0|0:0|0:0|0:0|0:0,0:0:0:0:
260,244,61371,6,0,B|276:269|306:280|334:271|352:253,1,80,6|0,0:1|0:0,0:0:0:0:
391,215,61687,1,10,0:0:0:0:
396,135,61845,1,0,0:0:0:0:
343,74,62003,2,0,B|308:50|262:57|235:86,1,80,2|0,0:0|0:0,0:0:0:0:
186,76,62318,1,10,0:0:0:0:
112,107,62476,1,0,0:0:0:0:
73,177,62634,6,0,B|66:217|93:254|131:261,1,80,2|0,0:1|0:0,0:0:0:0:
152,184,62950,2,0,B|178:163|214:165|238:184,1,80,10|0,0:0|0:0,0:0:0:0:
290,227,63266,5,2,0:0:0:0:
355,275,63424,1,0,0:0:0:0:
402,210,63582,1,10,0:0:0:0:
336,162,63740,1,0,0:0:0:0:
270,116,63897,5,2,0:1:0:0:
135,29,64213,1,10,0:0:0:0:
48,163,64529,1,2,0:0:0:0:
182,250,64845,1,10,0:0:0:0:
204,92,65161,5,2,0:1:0:0:
219,169,65318,1,0,0:0:0:0:
278,222,65476,1,10,0:0:0:0:
355,242,65634,1,0,0:0:0:0:
484,144,65950,6,0,B|485:112|464:84|434:74|407:81,1,80,,,0:0:0:0:
396,156,66266,1,0,0:0:0:0:
356,84,66424,2,0,B|324:96|308:130|317:160,1,80,6|0,0:1|0:0,0:0:0:0:
309,227,66740,1,10,0:0:0:0:
352,296,66897,1,0,0:0:0:0:
416,340,67055,2,0,B|440:316|437:277|412:256,1,80,2|0,0:0|0:0,0:0:0:0:
380,196,67371,5,10,0:0:0:0:
316,148,67529,1,0,0:0:0:0:
236,136,67687,1,2,0:1:0:0:
160,156,67845,1,0,0:0:0:0:
100,208,68003,2,0,B|73:227|58:256|53:285,1,80,10|0,0:0|0:0,0:0:0:0:
135,281,68318,5,2,0:0:0:0:
209,310,68476,1,0,0:0:0:0:
288,306,68634,1,10,0:0:0:0:
350,256,68792,1,0,0:0:0:0:
408,196,68950,5,2,0:1:0:0:
464,44,69266,1,10,0:0:0:0:
304,36,69582,1,2,0:0:0:0:
178,135,69897,1,10,0:0:0:0:
248,188,70055,1,10,0:0:0:0:
168,240,70213,5,2,3:1:0:0:
252,285,70371,1,0,3:2:0:0:
334,234,70529,1,10,3:2:0:0:
330,138,70687,1,0,3:2:0:0:
246,93,70845,6,0,L|248:52,2,40,4|0|0,3:2|3:0|3:2,0:0:0:0:
164,144,71161,2,0,L|124:128,2,40,10|0|0,3:2|3:2|3:2,0:0:0:0:
248,188,71476,5,6,0:1:0:0:
284,260,71634,1,0,0:0:0:0:
252,332,71792,2,0,B|230:356|195:361|166:345|152:321,1,80,10|0,0:0|0:0,0:0:0:0:
207,270,72108,5,2,0:0:0:0:
139,227,72266,1,0,0:0:0:0:
78,175,72424,2,0,B|53:149|47:111|61:81,1,80,10|0,0:1|0:0,0:0:0:0:
136,120,72740,6,0,B|137:84|160:54|190:42,1,80,2|0,0:1|0:0,0:0:0:0:
216,120,73055,1,10,0:0:0:0:
284,160,73213,1,0,0:0:0:0:
363,167,73371,2,0,B|362:196|346:220|324:234,1,80,2|0,0:0|0:0,0:0:0:0:
365,302,73687,2,0,B|339:315|310:313|287:301,1,80,10|0,0:0|0:0,0:0:0:0:
213,271,74003,5,2,0:1:0:0:
63,213,74318,1,10,0:0:0:0:
121,63,74634,1,2,0:0:0:0:
270,120,74950,1,10,0:0:0:0:
148,224,75266,5,0,0:1:0:0:
119,149,75424,1,0,0:0:0:0:
194,120,75582,1,10,0:0:0:0:
223,194,75740,1,0,0:0:0:0:
381,180,76055,5,0,0:0:0:0:
326,122,76213,1,10,0:0:0:0:
260,76,76371,1,0,0:0:0:0:
185,47,76529,2,0,B|159:34|129:40|109:59,1,80,6|6,0:1|0:0,0:0:0:0:
160,120,76845,1,10,0:0:0:0:
197,190,77003,1,0,0:0:0:0:
245,253,77161,6,0,B|217:273|181:273|154:256,1,80,2|0,0:0|0:0,0:0:0:0:
95,231,77476,1,10,0:0:0:0:
47,166,77634,1,0,0:0:0:0:
52,86,77792,1,6,0:1:0:0:
116,38,77950,1,0,0:0:0:0:
176,90,78108,2,0,L|195:188,1,80,10|0,0:0|0:0,0:0:0:0:
264,136,78424,6,0,B|269:98|300:71|335:68,1,80,2|0,0:0|0:0,0:0:0:0:
388,60,78740,1,10,0:0:0:0:
464,80,78897,1,0,0:0:0:0:
484,156,79055,6,0,B|494:189|482:224|457:244,1,80,6|0,0:1|0:0,0:0:0:0:
408,180,79371,2,0,B|388:207|387:240|400:268,1,80,10|0,0:0|0:0,0:0:0:0:
392,336,79687,2,0,B|420:341|446:328|459:304,2,80,10|0|2,0:0|0:0|2:0,0:0:0:0:
328,275,80161,1,0,2:0:0:0:
292,204,80318,5,10,3:1:0:0:
252,276,80476,1,0,3:0:0:0:
216,204,80634,1,10,3:0:0:0:
176,276,80792,1,0,3:0:0:0:
140,204,80950,2,0,L|140:148,2,40,10|0|0,3:0|3:0|3:0,0:0:0:0:
104,276,81266,2,0,L|104:324,2,40,10|2|0,3:0|3:0|3:0,0:0:0:0:
63,206,81582,5,4,0:0:0:0:
153,74,81897,2,0,L|236:98,1,80,10|0,0:0|0:0,0:0:0:0:
303,130,82214,1,2,0:0:0:0:
355,189,82371,1,0,0:0:0:0:
397,256,82529,1,10,0:0:0:0:
251,319,82845,6,0,B|223:318|199:302|186:280,2,80,2|0|10,0:0|0:0|0:0,0:0:0:0:
157,188,83477,2,0,B|129:191|106:210|97:235,2,80,2|0|10,0:0|0:0|0:0,0:0:0:0:
314,157,84108,5,10,3:0:0:0:
439,130,84424,1,10,3:0:0:0:
466,255,84740,1,10,3:0:0:0:
341,282,85055,1,14,3:0:0:0:
256,192,85371,12,2,87740,3:2:0:0:
